#TITLE:THONG MOVER;
#SUBTITLE:;
#ARTIST:AWESOME POWERS;
#TITLETRANSLIT:;
#SUBTITLETRANSLIT:;
#ARTISTTRANSLIT:;
#CREDIT:;
#BANNER:Thong Mover banner.png;
#BACKGROUND:Thong Mover bg.png;
#LYRICSPATH:;
#CDTITLE:MJ!! icon.gif;
#MUSIC:09_THONG MOVER (AWESOME POWERS).mp3;
#OFFSET:-1.900;
#SAMPLESTART:72.999;
#SAMPLELENGTH:17.640;
#SELECTABLE:YES;
#BPMS:0.000=125.000;
#STOPS:;
#BGCHANGES:;
// cache tags:
#FIRSTBEAT:3.250;
#LASTBEAT:371.500;
#SONGFILENAME:Songs/Music V.I.P ^_^/(Hiro) Thong Mover/Thong Mover.sm;
#HASMUSIC:1;
#HASBANNER:1;
#MUSICLENGTH:181.313;
// end cache tags

//---------------dance-single - ----------------
#NOTES:
     dance-single:
     :
     Challenge:
     11:
     1.000,1.000,1.000,0.199,1.000,1257.000,319.000,36.000,0.000,1.000:
0000
0000
0000
0000
0000
0000
0000
0000
0000
0000
0000
0000
0000
0001
0100
0010
,
1000
0010
0100
0100
0000
0010
0100
0001
1000
0100
0010
0010
0000
0010
0001
1000
,
0010
0100
0001
0001
0000
0001
1000
0010
0100
0001
1000
1000
0000
1000
0001
0100
,
1001
0010
1001
1000
0100
0000
0110
0000
0010
0000
1100
0000
0001
0000
0011
0000
,
1000
0000
0110
0000
1000
0000
0101
0000
0010
0000
1001
0000
0001
0010
1100
0001
,
1010
0100
0001
0001
0100
0010
1000
0010
0100
0001
1000
1000
0100
0010
0001
0010
,
0100
1000
0100
0100
1000
0001
0100
0010
1000
0010
0100
0100
0011
0100
1010
0100
,
1001
0000
0010
0000
1000
0000
0010
0000
1000
0000
0010
0000
1000
0000
0010
0100
0001
0000
0100
0000
0001
0000
0100
0000
0001
0000
0100
0000
0001
0000
0100
0010
,
1000
0001
1000
0001
1000
0001
1000
0001
1000
0001
1000
0001
1000
0001
1000
0001
2000
0000
0000
0000
0000
0000
0000
0000
3000
0000
0010
0000
1000
0000
0010
0000
,
1001
0000
0011
0000
1001
0000
1100
0000
0101
0000
0011
0000
1100
0000
1001
0110
,
0101
0000
1001
0000
1100
0000
1010
0000
0101
0000
1010
0101
1100
0000
1001
0110
,
1010
0000
0011
0000
1100
0000
1001
0000
0110
0000
1100
0000
1001
0000
0011
0110
,
1100
0000
1010
0000
0101
0000
0011
0000
1100
0000
1001
0011
1010
0000
1100
0011
,
1010
0001
0100
0010
1000
0010
0100
0001
1000
0100
0010
0001
0010
0100
1001
0110
,
1100
0001
0010
0100
0010
0001
1000
0010
0100
1000
0101
1010
1100
0001
1010
0101
,
1100
1000
0001
0100
0010
1000
0010
0100
0001
1000
0100
0010
0100
1000
1001
0110
,
1001
0000
0100
0000
0010
0000
0001
0000
0010
0000
0100
0000
1000
0000
0010
0000
1001
0000
0000
0000
0000
0000
0000
0000
0000
0000
1000
0100
1000
0100
1000
0100
,
1001
0010
1100
0001
0010
0100
1001
0100
0010
1000
0101
1000
0010
0100
0011
1000
,
0100
0010
1100
0001
1000
0010
0011
1000
0010
0100
1001
0001
0100
1000
0101
0010
,
1000
0100
0011
1000
0100
1000
0011
0100
0010
1000
0101
0100
0010
1000
0011
1000
,
0100
0010
0011
0100
1000
0010
1001
0100
0010
1000
0011
0001
0010
0100
1010
0100
,
0001
1000
0100
0100
0001
1000
0100
0010
0001
1000
0010
0010
0100
0001
1000
0100
,
0010
0001
1000
1000
0010
0100
0001
1000
0100
0010
0001
0001
1000
0001
0100
0010
,
1000
0001
0100
0100
0001
1000
0100
0010
0001
1000
0100
0100
0010
0001
1000
0010
,
0102
0000
0000
0000
0100
0000
0100
0000
0100
0000
0000
0000
0100
0000
0103
0000
0101
0000
0000
0000
0001
0000
0000
0000
0001
0000
0000
0000
0001
1000
0001
1000
,
0101
0000
0001
0100
1010
0000
1010
0000
1001
0000
0010
1000
0011
0000
0011
0000
,
1010
0000
0100
0001
1100
0000
1100
0000
0110
0000
0001
1000
0011
0000
0011
0100
,
1010
0000
0100
0010
1001
0000
1001
0000
1100
0000
0001
1000
0110
0000
0110
0000
,
0011
0000
0000
0000
1000
0000
0100
0000
1001
0000
0000
0000
1001
0000
0000
0000
1010
0000
0000
0000
0100
0001
0100
0001
0100
0000
0000
0000
1000
0100
1000
0100
,
1001
0010
1000
0010
0100
0001
0100
0001
1000
0100
0010
0001
1000
0001
1000
0001
,
0100
0010
1000
0010
0100
0001
0100
0001
1000
0100
0010
0001
1000
0010
1000
0010
,
0100
0001
1000
0100
0010
0001
0010
0001
1000
0100
0010
0100
1000
0001
1000
0001
,
0100
0000
0010
0000
1000
0000
0001
0000
0100
0000
0010
0000
0100
0000
0010
0000
1001
0000
0000
0000
0000
0000
0000
0000
0001
0100
0001
0000
1000
0100
1000
0000
,
1001
0100
0100
0000
0101
0000
1000
1000
0000
1000
0101
0000
0001
0001
0001
0001
,
0000
0001
0011
0000
0010
0010
0010
0011
0010
0010
0010
0010
1100
0010
1100
0000
,
0000
0001
0001
0000
1100
0000
1000
1000
0000
1000
1100
0000
0100
0100
0100
0100
,
0000
0100
0110
0000
0010
0010
0010
0011
0010
0010
0010
0010
1001
0010
1001
0000
,
0000
0001
1000
0000
0011
0000
1000
0100
0000
0100
1001
0000
0001
0100
1000
0100
,
0000
0001
1100
0000
0001
0010
1000
0110
0001
0010
1000
0010
0101
0010
1100
0000
,
0000
0001
1000
0000
0101
0000
1000
0100
0000
0100
1001
0000
0010
1000
0001
1000
,
0000
0001
0110
0000
1000
0010
1000
0011
1001
0100
1001
0100
1001
0100
1001
0100
,
0010
0001
1000
0000
0010
0000
0001
1000
0000
1000
0001
0000
0100
0001
1000
0001
,
0000
1000
0010
0000
0010
1000
0010
0100
0001
1000
0100
1000
0001
0100
0001
0000
,
1001
0100
0001
0000
1000
0000
0100
0010
0000
0010
0001
0000
0010
0100
0010
0001
,
0000
1000
0001
0000
1000
0001
0100
0010
1001
0100
1010
0001
1100
0110
0101
0110
,
1100
0000
0001
0100
0000
0100
0011
0000
1010
0000
1001
0100
0011
0100
1010
0100
,
1001
0000
1000
0101
0000
0001
1010
0000
1100
0000
0001
1000
0011
0110
1010
1001
,
0110
0000
0001
1010
0000
1000
0011
0000
1001
0000
0011
0100
1010
0001
1100
0010
,
1001
0000
1000
0110
0000
0001
1010
0000
0101
0000
0001
0000
1000
0100
0001
0100
,
1001
0000
1000
0101
0000
0001
1100
0000
1001
0000
0001
1000
0010
0100
0001
1000
,
0110
0000
0001
0110
0000
1000
0110
0000
1001
0000
0001
0000
1000
0100
0010
0100
,
1010
0000
0100
0011
0000
0100
1010
0000
1001
0000
1000
0100
0010
0001
0010
0100
,
1001
0001
0001
0001
0001
0001
0001
0001
0101
0000
0000
0000
0000
0001
1000
0010
,
0100
0001
1000
0011
0000
0010
1000
0010
0100
0001
1000
0110
0000
0001
1000
0001
,
0010
0100
1000
0101
0000
1000
0100
0010
0001
0010
0100
1010
0000
0001
1000
0010
,
1001
0010
1000
0001
0000
0001
1000
0010
0100
0001
1000
0100
0000
0100
0010
0001
,
0010
0100
1000
0100
0000
1000
0010
0100
0001
1000
0010
1000
0000
1000
0100
0010
,
1001
0100
1001
1000
0001
0000
1010
0000
0100
0000
0011
0000
1000
0000
1001
0000
,
0010
0000
1100
0000
0001
0000
0110
0000
0100
0000
1001
0000
0001
1000
0001
1000
,
0101
0000
1000
0101
0000
0001
0011
0000
1100
0000
0001
0100
1000
0100
0001
1000
,
0001
0100
0001
0100
0001
0100
0001
0100
0001
0100
0001
0100
0001
0100
0001
0100
2002
0000
0000
0000
0000
0000
0000
0000
3003
0000
0010
0000
0100
0000
1000
0000
,
0101
1000
0011
0100
1000
0010
0101
0010
1000
0100
1001
0001
0010
0100
1010
0100
,
0001
1000
0110
0001
1000
0010
1100
0010
0100
0001
1010
0100
0001
0100
1010
0001
,
0010
0100
1001
1000
0010
0100
1010
0100
0001
0010
0011
1000
0010
0100
1001
0100
,
0010
0100
0011
1000
0100
0010
1100
0010
0100
0001
0001
0001
0001
1000
0100
0010
,
0001
1000
0011
0011
0100
1000
0001
0100
0010
1000
0101
0101
0010
1000
0010
0100
,
0001
0100
1001
1001
0100
0010
1000
0010
0100
0001
1100
1100
0001
0010
0100
1000
,
0100
0010
1001
1001
0010
1000
0001
0100
0001
0010
1100
1100
0010
1000
0010
0100
,
0001
1000
0110
0110
0001
1000
0010
0100
0101
0000
0000
0000
0001
0001
2100
3000
,
0101
0000
0001
1000
0010
0100
0012
0003
1010
0000
0100
0001
0010
0100
2010
3000
,
1001
0000
0001
0010
0100
1000
0102
0003
0110
0000
0001
1000
0010
0100
1002
0003
,
0101
0000
0001
1000
0010
0100
1020
0030
1001
0000
0010
0001
0010
0100
2100
3000
,
0101
0000
0010
1000
0010
0100
1002
0003
1010
0000
0100
0100
0100
0100
0210
0300
,
1001
0000
0010
1000
0010
0100
0101
0001
1100
0010
0001
0010
0100
1000
0101
0010
,
1010
0100
0001
1000
0100
0010
1001
0100
0011
1000
0100
1000
0010
0100
0011
0100
,
0011
1000
0010
0100
0001
1000
0110
1000
0101
0010
1000
0010
0100
0001
1100
0001
,
2100
0000
0000
0000
0000
0000
0000
0000
0000
0000
0000
0000
0000
0000
0000
0000
0002
0000
0000
0000
0000
0000
0000
0000
3000
0000
0000
0000
0000
0000
0000
0000
0203
0000
0000
0000
0000
0000
0000
0000
0000
0000
0000
0000
0000
0000
0000
0000
0320
0000
0000
0000
0000
0000
0000
0000
0000
0000
0000
0000
0000
0000
0000
0000
0000
0000
0000
0000
0000
0000
0000
0000
2030
0000
0000
0000
0000
0000
0000
0000
0000
0000
0000
0000
3020
0000
0000
0000
0000
0000
0000
0000
0000
0000
0000
0000
0231
0000
0000
0000
0000
0000
0000
0000
0000
0000
0000
0000
0000
0000
0000
0000
0000
0000
0300
0000
0000
0000
0000
0000
0101
0000
0000
0000
0000
0000
0000
0000
0000
0000
0000
0000
0000
0000
0000
0000
0000
0000
0000
0000
0000
0000
0000
0000
0101
0000
0000
0000
0000
0000
0000
0000
0000
0000
0000
0000
0000
0000
0000
0000
0000
0000
0000
0000
0000
0000
0000
0000
0001
0000
0000
0000
0000
0000
1000
0000
0000
0000
0000
0000
0001
0000
0000
0000
0000
0000
1000
0000
0000
0000
0000
0000
,
0110
0100
0011
0100
0011
0100
0011
0100
0011
0100
0011
0100
0011
0100
0011
0100
,
1100
0001
1100
0001
1100
0001
1100
0001
1100
0001
1100
0001
1100
0001
1100
0001
,
1000
1000
0100
0100
0010
0010
0001
0001
0010
0010
0100
0100
0010
0010
0001
0001
,
1000
1000
0001
0001
0100
0100
0010
0010
0100
0100
0001
0001
1000
1000
0001
0001
,
0020
0031
0200
0310
2000
3001
0200
0310
0200
0301
2000
3100
0020
0031
0020
0130
,
0020
0031
2000
3010
0200
0301
0200
0310
2000
3001
0020
0130
2000
3010
0200
0301
,
1000
0100
0010
0100
0001
0100
0010
0100
1000
0100
0010
0100
0001
0100
0010
0100
,
1000
0001
0100
0001
1000
0001
0010
0001
1001
0000
0000
0000
1010
0001
1010
0100
,
1001
0000
0001
1000
0000
1000
0110
0000
0011
0000
0001
0010
0100
1000
0100
0010
,
0001
0000
0001
1000
0000
0100
0011
0000
1100
0000
1000
1000
0010
0100
0001
1000
,
0100
0000
0010
0001
0000
0001
1010
0000
1100
0000
1000
0100
1000
0010
0100
0001
,
1000
0000
1000
0010
0000
0010
1100
0000
1001
0000
0001
0001
1100
0010
0101
0010
,
1100
0000
0001
1100
0000
0010
1001
0000
1010
0000
0011
0100
1010
0001
1100
0010
,
1001
0000
0001
1100
0000
0100
0011
0000
0110
0000
0100
0100
0011
0100
1001
0010
,
1100
0000
0010
1100
0000
1000
0101
0000
0011
0000
1001
0100
1010
0001
0110
0001
,
1100
0000
1000
0110
0000
0100
0011
0000
1001
0000
1001
0000
0110
0000
0110
0000
;
